#TITLE:GRADIUS;
#SUBTITLE:-FULL SPEED-;
#ARTIST:Mr. T;
#TITLETRANSLIT:;
#SUBTITLETRANSLIT:;
#ARTISTTRANSLIT:;
#CREDIT:;
#BANNER:gradiusfs.png;
#BACKGROUND:gradiusfs-bg.png;
#LYRICSPATH:;
#CDTITLE:;
#MUSIC:beatmania IIDX 10th style - GRADIUS -FULL SPEED-.mp3;
#OFFSET:1.250;
#SAMPLESTART:35.819;
#SAMPLELENGTH:12.000;
#SELECTABLE:YES;
#BPMS:0.000=160.000,205.667=220.000,243.750=160.000,266.000=158.333,278.000=200.000;
#STOPS:101.625=0.375
,205.750=0.680
,243.750=0.280
;
#BGCHANGES:;
// cache tags:
#FIRSTBEAT:4.000;
#LASTBEAT:332.000;
#SONGFILENAME:Songs/Music V.I.P ^_^/gradius -full speed-/gradiusfs.sm;
#HASMUSIC:1;
#HASBANNER:1;
#MUSICLENGTH:118.883;
// end cache tags

//---------------dance-single - ----------------
#NOTES:
     dance-single:
     :
     Challenge:
     11:
     1.000,1.000,0.496,1.000,1.000,662.000,59.000,139.000,0.000,0.000:  // measure 1
0000
0000
0000
0000
,  // measure 2
1000
0000
0000
0100
0000
0000
1000
0000
0000
0010
0000
0000
0100
0000
0000
0000
0000
0000
0000
0000
0000
0000
0000
0000
0000
0000
0000
0000
0000
0000
1000
0000
0001
0000
0100
0000
1001
0000
0000
0000
0000
0000
0000
0000
0000
0000
0000
0000
,  // measure 3
1000
0100
1000
0001
0000
0010
0000
0100
0000
0010
0000
0001
0100
0010
0100
0010
,  // measure 4
1000
0100
0010
0100
0000
1000
0000
0010
0000
0100
0000
0010
1000
0001
1000
0001
,  // measure 5
0100
0010
0100
0001
0000
1000
0000
0010
0000
0100
0000
0010
1000
0100
0010
0100
,  // measure 6
1100
0000
0000
0011
0000
1100
1100
0000
0110
0110
0000
0000
0011
1100
0011
1100
,  // measure 7
0001
0100
0001
1000
0000
0001
0000
0100
0000
0001
0000
1000
0010
0100
0010
0100
,  // measure 8
0001
0100
0001
1000
0000
0010
0000
1000
0000
0100
0000
0010
0100
1000
0100
1000
,  // measure 9
0010
0100
0010
1000
0000
0010
0000
1000
0000
0000
0001
0000
0010
0100
0000
0000
,  // measure 10
0000
0000
1000
0010
0100
0000
0000
0000
0000
0000
0010
0100
0001
1000
0001
1000
,  // measure 11
1001
0000
0000
0000
1000
0000
0000
1000
0010
0000
0100
0000
0000
0000
0001
0000
,  // measure 12
0020
0000
0000
0200
0000
0000
0330
0000
0000
0000
1000
0100
1000
0010
0001
0010
,  // measure 13
0100
0000
0000
0010
0000
0000
1000
0000
0000
0000
0001
0000
1000
0100
0001
0100
,  // measure 14
0010
0000
0001
0100
0000
0010
0000
1000
0100
0000
0001
0010
0000
0001
0010
0000
,  // measure 15
1001
0000
0000
0000
0001
0000
0000
1000
0010
0000
1000
0000
0000
0000
1000
0000
,  // measure 16
0020
0000
0000
0200
0000
0000
0330
0000
0000
0000
1000
0100
1000
0001
0100
0001
,  // measure 17
0010
0000
0001
0010
0000
0000
1000
0000
0001
0000
0010
0000
0000
0000
0001
0000
,  // measure 18
0200
0000
0000
0020
0000
0000
0330
1000
0001
1000
0001
0000
0100
0010
0100
0010
,  // measure 19
1000
1010
0001
0011
1000
1010
0001
0011
,  // measure 20
1000
1100
0001
0101
1000
1100
0001
0101
,  // measure 21
0010
1010
0100
0101
0010
1010
0100
0101
,  // measure 22
0010
0000
0011
0000
0100
0000
1100
1100
0010
0000
0011
0011
0100
0000
1100
1100
,  // measure 23
1001
0000
0100
0000
0011
0000
0000
1100
0011
0000
0011
0000
0011
0000
0011
1100
,  // measure 24
0001
0000
2000
0000
3000
0000
0000
0200
0000
0300
0200
0000
0301
0000
0001
0000
,  // measure 25
0000
0100
1000
0000
0001
0000
0100
0001
0000
0001
0000
0001
0020
0000
0000
0030
,  // measure 26
1000
0000
0000
0001
0000
0001
0020
0000
0031
0000
0000
0001
0000
0001
1000
0000
,  // measure 27
0100
0000
0200
0000
1000
0000
1300
0000
0100
0000
0000
0100
0000
0000
0010
0000
,  // measure 28
0020
0000
0001
0000
0001
0001
0030
0001
2001
0000
0000
0000
3001
0000
0000
0000
,  // measure 29
0001
1000
0010
0100
0000
0000
0000
0000
0001
1000
0010
0100
0000
0000
0000
0000
,  // measure 30
0002
0000
0000
2003
0000
0000
3100
0000
0210
0000
0000
0000
0310
0000
0000
0000
,  // measure 31
1000
0001
0010
0100
0000
0000
0000
0000
1000
0001
0010
0100
0000
0000
0000
0000
,  // measure 32
2002
0000
3003
2020
0000
3030
0101
0000
0210
0000
0000
0000
1300
0000
0000
0000
,  // measure 33
0001
0100
0001
1000
0000
0000
0001
0100
0002
0000
0000
0203
0000
0000
0302
0000
,  // measure 34
0023
0000
0000
0230
0000
0000
0320
0000
0031
0100
0010
1000
1000
0100
0010
0001
,  // measure 35
1000
0010
0100
0001
1000
0010
0100
0001
2000
0000
0000
3200
0000
0000
0320
0000
,  // measure 36
0000
0032
0000
0000
2003
0000
3000
0000
2001
0000
0000
0000
3100
0000
0000
0000
,  // measure 37
0001
1000
0010
0100
0000
0000
0010
0000
1000
0001
0000
1001
0000
0000
0000
0000
,  // measure 38
0001
0010
0000
0110
0000
0000
0000
0000
1001
0010
0000
0110
0000
0100
0210
0000
,  // measure 39
0000
0000
0000
0310
0000
0000
1000
0100
1000
0100
1000
0100
,  // measure 40
1000
0100
1000
0100
1000
0100
0010
0001
0010
0001
0010
0001
,  // measure 41
0010
0001
0010
0001
0010
0001
0100
0010
0100
0010
0100
0010
,  // measure 42
1000
0000
0001
0000
1000
0000
0000
0100
0000
0000
1000
0000
0000
0000
1001
0000
1001
0000
1001
0000
1001
0000
0000
0000
,  // measure 43
0110
0000
1001
0000
0000
0110
0000
0000
0000
0000
0000
0000
,  // measure 44
0000
1000
0100
1000
0100
1000
0001
0100
0001
1000
0000
0002
,  // measure 45
0000
0000
0000
0103
0000
0020
1000
0000
1000
0000
1000
0000
,  // measure 46
1000
0000
1030
0100
1000
0001
0001
0100
0001
1000
0000
0100
,  // measure 47
0000
0000
0100
0001
0000
0020
0001
0000
0001
0000
0001
0000
,  // measure 48
0031
0001
0010
0100
1000
0100
0100
1000
0001
1000
0000
0020
,  // measure 49
0000
0000
1030
0100
0010
0001
1000
0100
1000
0001
0000
0200
,  // measure 50
0000
0000
0310
1000
0100
1000
0002
0000
1000
0000
1000
0003
,  // measure 51
1000
0001
0100
0001
1000
0100
2000
0000
0001
0000
3001
0000
,  // measure 52
0001
0000
0100
0000
0001
0000
0100
0000
0010
0000
0100
0000
0002
0000
0000
0000
0000
0000
0000
0000
0000
0203
0000
0000
,  // measure 53
0000
0000
0302
0000
2003
0000
0000
3200
,  // measure 54
0000
0000
2300
0000
3002
0000
0000
0203
,  // measure 55
0000
0000
0000
0000
0301
0100
1000
0100
0020
0000
0000
0000
0100
0000
0000
0000
,  // measure 56
0100
0000
0000
0000
0000
0000
0130
0000
1000
0000
0001
0000
0020
0000
0000
0000
0000
0000
0000
0000
0000
0230
0000
0000
,  // measure 57
0000
0000
0300
0000
0100
0001
1000
0100
0020
0000
0000
0000
0000
0000
0230
0000
,  // measure 58
0000
0000
0000
0300
0000
0000
0100
0000
1000
0000
0001
0000
0020
0000
0000
0000
0000
0000
0100
0000
0000
0000
0000
0000
,  // measure 59
0100
0000
0000
0000
0130
1000
0001
0100
0020
0000
0000
0000
0100
0000
0000
0000
,  // measure 60
0100
0000
0000
0000
0000
0000
0000
0000
0000
0000
0000
0000
0130
0000
0000
0001
0000
0000
1000
0000
0000
0100
0000
0000
0010
0000
0000
0000
0000
0000
0000
0000
0100
0000
0000
0000
0000
0000
0000
0000
1000
0000
0000
0000
0000
0000
0000
0000
,  // measure 61
0010
0000
0000
0000
0000
0000
0000
0000
0100
0000
0000
0000
0000
0000
0000
0000
1000
0000
0000
0000
0000
0000
0000
0000
0010
0000
0000
0100
0000
0000
0000
0000
0000
0100
0000
0000
0002
0000
0000
0000
0000
0000
0000
0000
0000
0000
0000
0000
,  // measure 62
0003
0000
0010
0001
1000
0100
0010
0001
1000
0100
0010
0001
1000
0100
0010
0001
,  // measure 63
1000
0100
0000
0100
0010
0000
0000
0010
0001
0000
0000
0001
0010
0000
0000
0010
,  // measure 64
1000
0100
0000
0100
0010
0000
0000
0010
0001
0000
0000
0001
0010
0000
0000
0010
,  // measure 65
1000
0100
0000
0100
1000
0100
0000
0100
1000
0100
0000
0100
1000
0100
0000
0100
,  // measure 66
0010
0001
0000
0001
0010
0001
0000
0001
0010
0001
0000
0001
0010
0001
0000
0001
,  // measure 67
2000
0000
0000
0001
0000
0000
0000
0000
0000
0000
0000
0000
0001
0000
0000
0000
0000
0000
0000
0000
0000
3001
0000
0000
2000
0000
3200
0000
0320
0000
0032
0000
0203
0000
0320
0000
2030
0000
3200
0000
0320
0000
0032
0000
0203
0000
0320
0000
,  // measure 68
2030
3200
0320
0032
0203
0320
2030
3200
0320
0032
0203
0320
2030
3200
0320
0032
0203
0320
2030
3200
0320
0032
0203
0320
,  // measure 69
2030
3200
0320
0032
0023
0230
2300
3020
0230
0302
0203
0320
2030
3200
0302
0203
2300
3020
0032
0023
2030
3200
0320
0032
,  // measure 70
2003
0000
3000
0000
2000
0000
0000
3200
,  // measure 71
0000
0000
0320
0000
0032
0000
0000
0203
,  // measure 72
0000
0320
2030
0010
,  // measure 73
0001
0000
0000
0100
0000
0000
3001
0000
0100
0010
0000
1000
,  // measure 74
0000
0000
0000
0000
0001
0000
0100
0000
0000
0000
0000
0000
0002
0000
0000
0000
0000
0000
0000
0000
0000
2003
0000
0000
,  // measure 75
0000
0000
0000
3002
0000
0000
0103
0000
0010
1000
0000
0010
,  // measure 76
0000
0000
1000
0100
0000
0010
0000
0000
0100
1000
0000
0001
,  // measure 77
0000
0000
0010
0100
0000
1000
0000
0000
0001
0100
0000
0010
,  // measure 78
0000
0000
0000
0000
1000
0000
0001
0000
0000
0000
0100
0000
0002
0000
0000
0000
0000
0000
0000
0000
0000
2003
0000
0000
,  // measure 79
0000
0000
3020
0000
2030
0000
0000
3200
,  // measure 80
0000
0320
0032
0010
,  // measure 81
1000
0000
0000
0100
0000
0000
0013
0000
1000
0001
0000
0100
,  // measure 82
0000
0000
0010
2000
0000
0000
0002
0000
0000
0000
0000
0000
,  // measure 83
0000
0000
0000
0000
,  // measure 84
3003
0000
0000
0000
;

//---------------dance-single - ----------------
#NOTES:
     dance-single:
     :
     Hard:
     9:
     0.725,0.943,0.067,0.471,0.820,539.000,8.000,56.000,0.000,0.000:  // measure 1
0000
0000
0000
0000
,  // measure 2
0010
0100
0010
0100
0010
0000
0000
0000
0000
0000
1000
0000
1001
0000
0000
0000
,  // measure 3
0110
0000
0010
1000
0000
0001
0000
0010
0000
0001
0000
1000
0001
0000
0100
0000
,  // measure 4
0001
0000
0010
0100
0000
0010
0000
0001
0000
0100
0000
0010
1000
0000
0001
0000
,  // measure 5
0100
0000
0010
1000
0000
0001
0000
1000
0000
0100
0000
0010
0001
0000
1000
0000
,  // measure 6
0001
0000
0001
0100
0000
0100
0010
0000
0010
1000
0000
1000
0100
0010
0100
0010
,  // measure 7
0001
0100
0001
0100
0000
0010
0000
1000
0000
0100
0000
0010
0001
1000
0001
0000
,  // measure 8
1000
0100
1000
0100
0000
0010
0000
0001
0000
0100
0000
0010
1000
0001
1000
0000
,  // measure 9
0100
0010
0100
0010
0000
0001
0000
1000
0000
0000
0100
0000
0010
0001
0000
0000
,  // measure 10
0000
0000
1000
0100
1000
0000
0000
0000
0000
0000
0001
0100
0001
0000
0000
0000
,  // measure 11
1001
0000
0000
0000
1000
0000
0000
1000
0001
0000
0100
0000
0001
0000
1000
0000
,  // measure 12
0010
0000
0000
0200
0000
0000
0000
0300
0001
0000
1000
0000
0010
0000
0100
0000
,  // measure 13
0001
0000
0000
0100
0000
0000
0001
0000
0000
0000
0100
0000
0010
1000
0010
0000
,  // measure 14
1000
0000
0100
0010
0000
0010
0000
0010
0001
0000
0100
0010
0000
0010
1000
0000
,  // measure 15
1001
0000
0000
0000
0100
0000
0000
0001
1000
0000
0100
0000
1000
0000
0001
0000
,  // measure 16
1000
0000
0000
0200
0000
0000
0000
0300
0000
0000
1000
0000
0100
0000
0010
0000
,  // measure 17
0001
0000
1000
0001
0000
0000
1000
0000
1000
0000
0010
0000
0000
0000
1000
0000
,  // measure 18
0200
0000
0000
0020
0000
0330
0000
0000
0001
0100
0001
0000
1000
0100
1000
0000
,  // measure 19
0001
0100
0010
0100
1000
0100
0010
0100
,  // measure 20
0001
1000
0010
1000
0100
1000
0010
1000
,  // measure 21
0100
0010
0001
0010
0100
0010
1000
0010
,  // measure 22
0100
0001
0010
0001
1000
0001
0010
0001
,  // measure 23
0100
0000
0000
0000
0010
0000
0000
0010
0100
0000
0100
0000
0100
0000
0100
0010
,  // measure 24
1000
0100
0010
0100
1000
0100
0010
0010
,  // measure 25
0000
0001
0000
0000
1000
0000
1000
0100
0000
0010
0000
0100
1000
0000
0000
0001
,  // measure 26
0000
0000
0100
0000
0000
0020
0030
0000
0001
0000
0000
1000
0000
1000
0001
0000
,  // measure 27
0010
0000
0010
0000
0000
0000
0000
0000
0001
0000
0000
0001
0000
0000
0010
0000
,  // measure 28
0010
0000
1001
0100
,  // measure 29
0010
0001
0010
0000
0100
1000
0100
0000
,  // measure 30
1000
0000
0000
0100
0000
0000
0001
0000
0010
0000
0000
0000
0100
0000
0000
0000
,  // measure 31
0010
0100
1000
0000
0010
0100
0001
0000
,  // measure 32
1000
0000
0000
0100
0000
0000
0001
0000
0010
0000
0000
0000
0100
0000
0000
0000
,  // measure 33
1000
0000
0001
0000
1000
0000
0100
0000
0010
0000
0000
0001
0000
0000
1000
0000
,  // measure 34
0010
0000
0000
1000
0000
0000
0100
0000
0010
0000
0001
0000
0100
0000
0010
0000
,  // measure 35
1000
0000
0100
0000
0010
0000
0001
0000
2000
0000
0000
3002
0000
0000
0203
0000
,  // measure 36
0000
0320
0000
0000
2030
0000
3000
0000
1001
0000
0000
0000
0100
0000
0000
0000
,  // measure 37
0001
0000
1000
0000
0100
0000
0100
0000
1000
0010
0000
0010
0000
0000
0000
0000
,  // measure 38
0001
0010
0000
0010
0000
0000
0000
0000
1000
0010
0000
0010
0000
0100
0020
0000
,  // measure 39
0000
0000
0000
0130
0000
0000
1000
0001
1000
0001
1000
0001
,  // measure 40
1000
0001
1000
0001
1000
0001
0010
0100
0010
0100
0010
0100
,  // measure 41
0010
0100
0010
0100
0010
0100
1000
0001
1000
0001
1000
0001
,  // measure 42
0100
0000
0010
0000
0100
0000
0000
0010
0000
0000
0100
0000
0000
0000
1000
0000
0001
0000
1000
0000
0001
0000
0000
0000
,  // measure 43
0100
0000
0110
0000
0000
1001
0000
0000
0000
0000
0000
0000
,  // measure 44
0000
0000
0000
0000
0000
0000
1000
0000
0001
0000
1000
0000
,  // measure 45
0100
0000
0010
0000
0100
0000
1000
0000
0001
0000
1000
0000
,  // measure 46
0010
0000
0100
0000
0010
0000
1000
0000
0100
0000
0010
0000
,  // measure 47
0001
0000
0100
0000
0010
0000
1000
0000
0010
0000
0100
0000
,  // measure 48
0001
0000
0010
0000
0100
0000
1000
0000
0100
0000
0010
0000
,  // measure 49
0001
0000
0010
0000
0100
0000
1000
0000
0010
0000
0100
0000
,  // measure 50
0001
0000
0100
0000
0010
0000
1000
0000
1000
0000
1000
0000
,  // measure 51
1000
0000
1000
0000
1000
0000
0001
0000
0001
0000
0001
0000
,  // measure 52
0001
1000
0100
1000
0010
0100
0002
0000
0000
0100
0000
0000
,  // measure 53
1000
0103
0020
1000
,  // measure 54
0100
1030
0002
0010
,  // measure 55
1000
0000
0013
0100
2000
0000
0001
0000
,  // measure 56
0010
0000
3100
0010
0100
0000
0001
0000
,  // measure 57
0100
0000
0010
0100
0010
0000
1000
0000
,  // measure 58
0100
0000
0010
0100
0010
0000
0001
0000
,  // measure 59
0100
0000
0010
0100
0010
0000
1000
0000
,  // measure 60
0100
0000
0000
0000
0000
0000
0010
0000
0000
0100
0000
0000
0010
0000
0000
0000
0001
0000
0000
0000
0100
0000
0000
0000
,  // measure 61
0010
0000
0000
0000
0000
0000
0000
0000
1000
0000
0000
0000
0000
0000
0000
0000
0100
0000
0000
0000
0000
0000
0000
0000
0010
0000
0000
0001
0000
0000
0000
0000
0000
0001
0000
0000
0200
0000
0000
0000
0000
0000
0000
0000
0000
0300
0000
0000
,  // measure 62
0000
0000
0001
1000
0001
1000
0001
1000
0001
1000
0001
1000
0001
1000
0001
1000
,  // measure 63
0001
0100
0000
0000
0100
0010
0000
0000
0010
1000
0000
0000
1000
0100
0000
0000
,  // measure 64
0001
0100
0000
0000
0100
0010
0000
0000
0010
1000
0000
0000
1000
0100
0000
0000
,  // measure 65
0001
0100
0000
0001
0100
0000
0000
0001
0100
0000
0000
0001
0100
0000
0000
0100
,  // measure 66
0010
1000
0000
0010
1000
0000
0000
0010
1000
0000
0000
0010
1000
0000
0000
0010
,  // measure 67
2000
0000
0000
0000
3002
0203
0320
2030
,  // measure 68
3200
0320
0032
0203
0320
2030
3200
0320
,  // measure 69
0032
0203
2300
3200
0302
0023
2030
3020
,  // measure 70
0032
0000
0000
0000
2003
0000
0000
3200
,  // measure 71
0000
0000
0320
0000
0230
0000
0000
2300
,  // measure 72
0000
3002
0023
1000
,  // measure 73
0100
0000
0000
0031
0000
0000
1000
0000
1000
0010
0000
0100
,  // measure 74
0000
0000
0000
0000
0001
0000
0100
0000
0000
0000
0000
0000
0020
0000
0000
0000
0000
0000
0000
0000
0000
2030
0000
0000
,  // measure 75
0000
0000
0000
3001
0000
0000
1000
0000
1000
0001
0000
0010
,  // measure 76
0000
0000
0010
0001
0000
0010
0000
0000
0010
0001
0000
0100
,  // measure 77
0000
0000
0010
1000
0000
0100
0000
0000
0001
0100
0000
0001
,  // measure 78
0000
0000
0000
0000
1000
0000
0001
0000
0000
0000
0100
0000
0002
0000
0000
0000
0000
0000
0000
0000
0000
0203
0000
0000
,  // measure 79
0000
0000
0320
0000
0230
0000
0000
0302
,  // measure 80
0000
2003
3020
0001
,  // measure 81
0100
0000
0000
1030
0000
0000
0010
0000
0100
0001
0000
1000
,  // measure 82
0000
0000
0001
0200
0000
0000
0002
0000
0000
0000
0000
0000
,  // measure 83
0000
0000
0000
0000
,  // measure 84
0303
0000
0000
0000
;
